Junoon Torrents - Download Movies - junoon.ucoz.ru



Agneepath 2012 Hindi BluRay 1080p HEVC x265 DTS...Team Telly



Storyline:

A young boy's father is lynched before his eyes; fifteen years later he returns home for revenge...

Genres:Action, Crime, Drama
Country: India
Language: Hindi
Release Date:26 January 2012 (Pakistan)



Media Information:

Complete name :Agneepath 2012 Hindi BluRay 1080p HEVC x265 DTS...Team Telly

Format : Matroska
Format version : Version 4 / Version 2
File size : 4.27 GiB
Duration : 2h 54mn
Overall bit rate : 3 509 Kbps
Movie name : RSY Team Telly

Video
ID : 1
Format : HEVC
Format/Info : High Efficiency Video Coding
Codec ID : V_MPEGH/ISO/HEVC
Duration : 2h 54mn
Bit rate : 1 930 Kbps
Width : 1 920 pixels
Height : 816 pixels
Display aspect ratio : 2.35:1
Frame rate mode : Constant
Frame rate : 24.000 fps
Bits/(Pixel*Frame) : 0.051
Stream size : 2.35 GiB (55%)
Title : RSY Team Telly
Language : English
Default : Yes
Forced : No

Audio
ID : 2
Format : DTS
Format/Info : Digital Theater Systems
Mode : 16
Format settings, Endianness : Big
Codec ID : A_DTS
Duration : 2h 54mn
Bit rate mode : Constant
Bit rate : 1 509 Kbps
Channel(s) : 6 channels
Channel positions : Front: L C R, Side: L R, LFE
Sampling rate : 48.0 KHz
Bit depth : 24 bits
Compression mode : Lossy
Stream size : 1.84 GiB (43%)
Title : RSY Team Telly
Default : Yes
Forced : No




Screenshot:



























Note : Please try to seed as much as you can since "sharing brings joy" !

Respect to all Staffs and all P2P Relesers

 

 




>>>>>Скачать Download<<<<<<





­ ­ ­ ­ ­ ­ ­ ­ ­ ­ ­ ­

 
 

 

 

/_ld/19/26135453.jpg
Date added: 2015-05-09 | Number of comments: 1 | Viewed: 175
1. junoon (5:43 AM Sunday)
Hi Rsy,

I have made following changings:

1. Resized cover picture on main page
2. Choosed x265 and Indian from category drop-down list
3. Placed torrent link which you uploaded so its downloadable

thankx for uploading, have a nice day!
>
Search / ПОИСК
Login / Logout
Latest 50 Entries
Stats
Poll
Menu
Chat
Most Popular 20 Entries
All Time Top 100