Junoon Torrents - Download Movies - junoon.ucoz.ru



Bhoothnath 2008 Hindi BluRay 1080p HEVC x265 DTS...Team Telly



Storyline:

Banku, his mother, Anjali Sharma and father move in to their new house -- the Nath villa, unaware of the fact that the house is inhabited by a ghost. It is learnt the ghost is not too happy with his new housemates. But what the ghost is not prepared for is his unlikely friendship with Banku. Now Banku must uncover the reason why his ghostly friend is stuck and help him to attain salvation...

Genres:Comedy, Drama, Fantasy
Country: India
Language: Hindi
Release Date:9 May 2008 (USA)



Media Information:

Complete name :Bhoothnath 2008 Hindi BluRay 1080p HEVC x265 DTS...Team Telly

Format : Matroska
Format version : Version 4 / Version 2
File size : 4.78 GiB
Duration : 2h 15mn
Overall bit rate : 5 043 Kbps
Movie name : RSY-HEVC ENCODER

Video
ID : 1
Format : HEVC
Format/Info : High Efficiency Video Coding
Codec ID : V_MPEGH/ISO/HEVC
Duration : 2h 15mn
Bit rate : 3 433 Kbps
Width : 1 920 pixels
Height : 816 pixels
Display aspect ratio : 2.35:1
Frame rate mode : Constant
Frame rate : 24.000 fps
Bits/(Pixel*Frame) : 0.091
Stream size : 3.25 GiB (68%)
Title : RSY-HEVC ENCODER
Language : English
Default : Yes
Forced : No

Audio
ID : 2
Format : DTS
Format/Info : Digital Theater Systems
Mode : 16
Format settings, Endianness : Big
Codec ID : A_DTS
Duration : 2h 15mn
Bit rate mode : Constant
Bit rate : 1 509 Kbps
Channel(s) : 6 channels
Channel positions : Front: L C R, Side: L R, LFE
Sampling rate : 48.0 KHz
Bit depth : 24 bits
Compression mode : Lossy
Stream size : 1.43 GiB (30%)
Title : RSY-HEVC ENCODER
Default : Yes
Forced : No




Screenshot:





















Note : Please try to seed as much as you can since "sharing brings joy" !

Respect to all Staffs and all P2P Relesers

 

 

 

 

/_ld/18/20261719.jpg
Date added: 2015-04-23 | Number of comments: 0 | Viewed: 224
>
Search / ПОИСК
Login / Logout
Latest 50 Entries
Stats
Poll
Menu
Chat
Most Popular 20 Entries
All Time Top 100