Junoon Torrents - Download Movies - junoon.ucoz.ru



Cheeni Kum 2007 Hindi BluRay 1080p HEVC x265 DTS...Team Telly



Storyline:

An egotistical 64-year-old chef and confirmed bachelor falls for a woman 30 years his junior...

Genres: Comedy, Romance
Country: India
Language: Hindi
Release Date:25 May 2007 (India)



Media Information:

Complete name :Cheeni Kum 2007 Hindi BluRay 1080p HEVC x265 DTS...Team Telly

Format : Matroska
Format version : Version 4 / Version 2
File size : 4.63 GiB
Duration : 2h 20mn
Overall bit rate : 4 707 Kbps
Movie name : RSY-HEVC ENCODER

Video
ID : 1
Format : HEVC
Format/Info : High Efficiency Video Coding
Codec ID : V_MPEGH/ISO/HEVC
Duration : 2h 20mn
Bit rate : 3 104 Kbps
Width : 1 920 pixels
Height : 816 pixels
Display aspect ratio : 2.35:1
Frame rate mode : Constant
Frame rate : 24.000 fps
Bits/(Pixel*Frame) : 0.083
Stream size : 3.06 GiB (66%)
Title : RSY-HEVC ENCODER
Language : English
Default : Yes
Forced : No

Audio
ID : 2
Format : DTS
Format/Info : Digital Theater Systems
Mode : 16
Format settings, Endianness : Big
Codec ID : A_DTS
Duration : 2h 20mn
Bit rate mode : Constant
Bit rate : 1 509 Kbps
Channel(s) : 6 channels
Channel positions : Front: L C R, Side: L R, LFE
Sampling rate : 48.0 KHz
Bit depth : 24 bits
Compression mode : Lossy
Stream size : 1.49 GiB (32%)
Title : RSY-HEVC ENCODER
Default : Yes
Forced : No




Screenshot:





















Note : Please try to seed as much as you can since "sharing brings joy" !

Respect to all Staffs and all P2P Relesers

/_ld/18/03828217.jpg
Date added: 2015-04-23 | Number of comments: 0 | Viewed: 179
>
Search / ПОИСК
Login / Logout
Latest 50 Entries
Stats
Poll
Menu
Chat
Most Popular 20 Entries
All Time Top 100