Junoon Torrents - Download Movies - junoon.ucoz.ru



Gangs of Wasseypur (1) 2012 Hindi Hindi BluRay 1080p HEVC x265 DTS...Team Telly



Storyline:

A clash between Sultan (a Qureishi dacoit chief) and Shahid Khan (a Pathan who impersonates him) leads to the expulsion of Khan from Wasseypur, and ignites a deadly blood feud spanning three generations...

Genres: Action, Crime, Drama
Country: India
Language: Hindi
Release Date: 2 August 2012 (Singapore)



Media Information:

Complete name :Gangs of Wasseypur (1) 2012 Hindi Hindi BluRay 1080p HEVC x265 DTS...Team Telly

Format : Matroska
Format version : Version 4 / Version 2
File size : 5.76 GiB
Duration : 2h 41mn
Overall bit rate : 5 109 Kbps
Movie name : RSY-HEVC ENCODER

Video
ID : 1
Format : HEVC
Format/Info : High Efficiency Video Coding
Codec ID : V_MPEGH/ISO/HEVC
Duration : 2h 41mn
Bit rate : 3 499 Kbps
Width : 1 920 pixels
Height : 816 pixels
Display aspect ratio : 2.35:1
Frame rate mode : Constant
Frame rate : 24.000 fps
Bits/(Pixel*Frame) : 0.093
Stream size : 3.94 GiB (68%)
Title : RSY-HEVC ENCODER
Language : English
Default : Yes
Forced : No

Audio
ID : 2
Format : DTS
Format/Info : Digital Theater Systems
Mode : 16
Format settings, Endianness : Big
Codec ID : A_DTS
Duration : 2h 41mn
Bit rate mode : Constant
Bit rate : 1 509 Kbps
Channel(s) : 6 channels
Channel positions : Front: L C R, Side: L R, LFE
Sampling rate : 48.0 KHz
Bit depth : 24 bits
Compression mode : Lossy
Stream size : 1.70 GiB (30%)
Title : RSY-HEVC ENCODER
Default : Yes
Forced : No




Screenshot:



















Note : Please try to seed as much as you can since "sharing brings joy" !

Respect to all Staffs and all P2P Relesers






>>>>>Скачать Download<<<<<<





­ ­ ­ ­ ­ ­ ­ ­ ­ ­ ­ ­

/_ld/18/20275829.jpg
Date added: 2015-05-08 | Number of comments: 0 | Viewed: 172
>
Search / ПОИСК
Login / Logout
Latest 50 Entries
Stats
Poll
Menu
Chat
Most Popular 20 Entries
All Time Top 100