Junoon Torrents - Download Movies - junoon.ucoz.ru



Patiala House 2011 Hindi BluRay 1080p HEVC x265 AC-3 5.1 Team Telly



Storyline:

a victim of British racial violence and profiling prevents his son from playing cricket...

Genres: Comedy, Drama, Sport
Country: India
Language: Hindi
Release Date:11 February 2011 (India)



Media Information:

Complete name :Patiala House 2011 Hindi BluRay 1080p HEVC x265 AC-3 5.1 Team Telly

Format : Matroska
Format version : Version 4 / Version 2
File size : 4.56 GiB
Duration : 2h 26mn
Overall bit rate : 4 460 Kbps
Movie name : RSY-HEVC ENCODER
Encoded date : UTC 2015-04-19 22:45:09

Video
ID : 1
Format : HEVC
Format/Info : High Efficiency Video Coding
Codec ID : V_MPEGH/ISO/HEVC
Duration : 2h 26mn
Bit rate : 3 731 Kbps
Width : 1 920 pixels
Height : 816 pixels
Display aspect ratio : 2.35:1
Frame rate mode : Constant
Frame rate : 24.000 fps
Bits/(Pixel*Frame) : 0.099
Stream size : 3.82 GiB (84%)
Title : RSY-HEVC ENCODER
Language : English
Default : Yes
Forced : No

Audio
ID : 2
Format : AC-3
Format/Info : Audio Coding 3
Mode extension : CM (complete main)
Format settings, Endianness : Big
Codec ID : A_AC3
Duration : 2h 26mn
Bit rate mode : Constant
Bit rate : 640 Kbps
Channel(s) : 6 channels
Channel positions : Front: L C R, Side: L R, LFE
Sampling rate : 48.0 KHz
Bit depth : 16 bits
Compression mode : Lossy
Stream size : 671 MiB (14%)
Title : RSY-HEVC ENCODER
Default : Yes
Forced : No




Screenshot:

















Note : Please try to seed as much as you can since "sharing brings joy" !

Respect to all Staffs and all P2P Relesers






>>>>>Скачать Download<<<<<<





­ ­ ­ ­ ­ ­ ­ ­ ­ ­ ­ ­

/_ld/18/34883148.jpg
Date added: 2015-05-08 | Number of comments: 0 | Viewed: 170
>
Search / ПОИСК
Login / Logout
Latest 50 Entries
Stats
Poll
Menu
Chat
Most Popular 20 Entries
All Time Top 100