Junoon Torrents - Download Movies - junoon.ucoz.ru



ROY (2015) Hindi BluRay 1080p HEVC x265 DTS...Team Telly



Storyline:

Kabir Grewal, a Casanovic film maker and screenwriter is making multiple films (GUNS Trilogy) based on a thief's life and robberies, all achieving high success. In order to shoot his third installment (GUNS 3), he goes to Malaysia, where he meets a London based film-maker Ayesha Aamir . Kabir and Ayesha get friendly and soon fall in love. When Ayesha gets to know about Kabir's casanova attitude, she breaks up with him and returns to London. Dejected Kabir goes into depression and returns back to Mumbai, leaving his film incomplete. After several failed trials Kabir couldn't find a perfect climax for his story. On his assistant Meera's suggestion Kabir goes to a film festival as part of the jury, where Ayesha's film is being screened. Ayesha, thought that Kabir is following her and asks him to stay away from her life. After his father's death and been sued by film financiers Kabir decides to move on and complete his film. In a parallel story, An infamous Roy is a mysterious international Art thief whom no country seems to be able to get their hands on, including detective Wadia. On his new assignment, Roy goes to an unknown foreign land to steal an expensive painting only to find that its owner is the beautiful Tia. Tia lives alone in a huge mansion where the painting is kept. Hence, Roy tries to befriend Tia in an art auction and soon impresses her with his charm. A chemistry sparks between the two and both start spending time together, giving Roy entry into the mansion. Seeking for the right opportunity, one night Roy runs away with the painting, leaving Tia heartbroken. Roy later regrets, as he has fallen in love with Tia and hence decides to return the painting to her. After a small clash with painting's new owner, Roy manages to get it back. On receiving the paintings Tia realises that Roy is now a changed man and forgives him. Meanwhile, Kabir's film "Guns 3" releases with huge success...

Genres:Action, Drama, Romance
Country: India
Language: Hindi
Release Date: 13 February 2015 (Pakistan)



Media Information:

Complete name :ROY (2015) Hindi BluRay 1080p HEVC x265 DTS...Team Telly

Format : Matroska
Format version : Version 4 / Version 2
File size : 5.20 GiB
Duration : 2h 25mn
Overall bit rate : 5 125 Kbps
Movie name : RSY-HEVC ENCODER

Video
ID : 1
Format : HEVC
Format/Info : High Efficiency Video Coding
Codec ID : V_MPEGH/ISO/HEVC
Duration : 2h 25mn
Bit rate : 3 514 Kbps
Width : 1 920 pixels
Height : 816 pixels
Display aspect ratio : 2.35:1
Frame rate mode : Constant
Frame rate : 24.000 fps
Bits/(Pixel*Frame) : 0.093
Stream size : 3.57 GiB (69%)
Title : RSY-HEVC ENCODER
Language : English
Default : Yes
Forced : No

Audio
ID : 2
Format : DTS
Format/Info : Digital Theater Systems
Mode : 16
Format settings, Endianness : Big
Codec ID : A_DTS
Duration : 2h 25mn
Bit rate mode : Constant
Bit rate : 1 509 Kbps
Channel(s) : 6 channels
Channel positions : Front: L C R, Side: L R, LFE
Sampling rate : 48.0 KHz
Bit depth : 24 bits
Compression mode : Lossy
Stream size : 1.53 GiB (29%)
Title : RSY-HEVC ENCODER
Default : Yes
Forced : No




Screenshot:























Note : Please try to seed as much as you can since "sharing brings joy" !

Respect to all Staffs and all P2P Relesers

/_ld/18/03796409.jpg
Date added: 2015-04-27 | Number of comments: 0 | Viewed: 223
>
Search / ПОИСК
Login / Logout
Latest 50 Entries
Stats
Poll
Menu
Chat
Most Popular 20 Entries
All Time Top 100