Junoon Torrents - Download Movies - junoon.ucoz.ru


Bhaag Milkha Bhaag 2013 Hindi BluRay 1080p HEVC x265 DTS...Team Telly



Storyline:

The truth behind the ascension of Milkha "The Flying Sikh" Singh who was scarred because of the India-Pakistan partition..

Genres:Biography | Drama | History
Country: India
Language: Hindi
Release Date: 12 July 2013 (USA)


Media Information:

Complete name :Bhaag Milkha Bhaag 2013 Hindi BluRay 1080p HEVC x265 DTS...Team Telly


Format : Matroska
Format version : Version 4 / Version 2
File size : 5.61 GiB
Duration : 3h 6mn
Overall bit rate : 4 311 Kbps
Movie name : RSY HEVC ENCODER
Encoded date : UTC 2015-01-28 19:07:45

Video
ID : 1
Format : HEVC
Format/Info : High Efficiency Video Coding
Codec ID : V_MPEGH/ISO/HEVC
Duration : 3h 6mn
Bit rate : 2 716 Kbps
Width : 1 920 pixels
Height : 816 pixels
Display aspect ratio : 2.35:1
Frame rate mode : Constant
Frame rate : 25.000 fps
Bits/(Pixel*Frame) : 0.069
Stream size : 3.54 GiB (63%)
Title : RSY HEVC ENCODER
Language : English
Default : Yes
Forced : No

Audio
ID : 2
Format : DTS
Format/Info : Digital Theater Systems
Mode : 16
Format settings, Endianness : Big
Codec ID : A_DTS
Duration : 3h 6mn
Bit rate mode : Constant
Bit rate : 1 509 Kbps
Channel(s) : 6 channels
Channel positions : Front: L C R, Side: L R, LFE
Sampling rate : 48.0 KHz
Bit depth : 24 bits
Compression mode : Lossy
Stream size : 1.96 GiB (35%)
Title : RSY HEVC ENCODER
Language : Hindi
Default : Yes
Forced : No



Screenshot:

























I am on FaceBook, Post Your suggestion, and find upcoming Releases at FB Page so keep in touch !!!



Note : Please try to seed as much as you can since "sharing brings joy" !
/_ld/19/12534479.jpg
Date added: 2015-05-17 | Number of comments: 0 | Viewed: 152
>
Search / ПОИСК
Login / Logout
Latest 50 Entries
Stats
Poll
Menu
Chat
Most Popular 20 Entries
All Time Top 100