Junoon Torrents - Download Movies - junoon.ucoz.ru


Bol Bachchan 2012 Hindi BluRay 1080p HEVC x265 DTS...Team Telly



Storyline:

Abbas Ali (Abhishek Bachchan) lives in Karol Bagh, New Delhi with his sister Sania(Asin Thottumkal).

Genres:Comedy
Country: India
Language: Hindi
Release Date: 11 April 2008 (Pakistan)s


Media Information:

Complete name :Bol Bachchan 2012 Hindi BluRay 1080p HEVC x265 DTS...Team Telly

Format : Matroska
Format version : Version 4 / Version 2
File size : 4.51 GiB
Duration : 2h 29mn
Overall bit rate : 4 311 Kbps
Movie name : RSY HEVC ENCODER

Video
ID : 1
Format : HEVC
Format/Info : High Efficiency Video Coding
Codec ID : V_MPEGH/ISO/HEVC
Duration : 2h 29mn
Bit rate : 2 716 Kbps
Width : 1 920 pixels
Height : 816 pixels
Display aspect ratio : 2.35:1
Frame rate mode : Constant
Frame rate : 24.000 fps
Bits/(Pixel*Frame) : 0.072
Stream size : 2.84 GiB (63%)
Title : RSY HEVC ENCODER
Language : English
Default : Yes
Forced : No

Audio
ID : 2
Format : DTS
Format/Info : Digital Theater Systems
Mode : 16
Format settings, Endianness : Big
Codec ID : A_DTS
Duration : 2h 29mn
Bit rate mode : Constant
Bit rate : 1 509 Kbps
Channel(s) : 6 channels
Channel positions : Front: L C R, Side: L R, LFE
Sampling rate : 48.0 KHz
Bit depth : 24 bits
Compression mode : Lossy
Stream size : 1.58 GiB (35%)
Title : RSY HEVC ENCODER
Default : Yes
Forced : No



Screenshot:























/_ld/19/89897881.jpg
Date added: 2015-05-17 | Number of comments: 0 | Viewed: 166
>
Search / ПОИСК
Login / Logout
Latest 50 Entries
Stats
Poll
Menu
Chat
Most Popular 20 Entries
All Time Top 100