Junoon Torrents - Download Movies - junoon.ucoz.ru



Dum Laga Ke Haisha (2015) Hindi BluRay 1080p HEVC x265 DTS...Team Telly



Storyline:

A marriage is arranged between a slim guy and an over-weight girl...

Genres:Comedy, Drama, Romance
Country: India
Language: Hindi
Release Date:27 February 2015 (India)



Media Information:

Complete name :Dum Laga Ke Haisha (2015) Hindi BluRay 1080p HEVC x265 DTS...Team Telly

Format : Matroska
Format version : Version 4 / Version 2
File size : 3.55 GiB
Duration : 1h 50mn
Overall bit rate : 4 607 Kbps
Movie name : RSY-HEVC ENCODER

Video
ID : 2
Format : HEVC
Format/Info : High Efficiency Video Coding
Codec ID : V_MPEGH/ISO/HEVC
Duration : 1h 50mn
Bit rate : 3 007 Kbps
Width : 1 920 pixels
Height : 800 pixels
Display aspect ratio : 2.40:1
Frame rate mode : Constant
Frame rate : 24.000 fps
Bits/(Pixel*Frame) : 0.082
Stream size : 2.32 GiB (65%)
Title : RSY-HEVC ENCODER
Language : English
Default : Yes
Forced : No

Audio
ID : 1
Format : DTS
Format/Info : Digital Theater Systems
Mode : 16
Format settings, Endianness : Big
Codec ID : A_DTS
Duration : 1h 50mn
Bit rate mode : Constant
Bit rate : 1 509 Kbps
Channel(s) : 6 channels
Channel positions : Front: L C R, Side: L R, LFE
Sampling rate : 48.0 KHz
Bit depth : 24 bits
Compression mode : Lossy
Stream size : 1.16 GiB (33%)
Title : RSY-HEVC ENCODER
Default : Yes
Forced : No




Screenshot:











Note : Please try to seed as much as you can since "sharing brings joy" !

Respect to all Staffs and all P2P Relesers

 

 




>>>>>Скачать Download<<<<<<





­ ­ ­ ­ ­ ­ ­ ­ ­ ­ ­ ­

 
 

 

 

/_ld/18/35082781.jpg
Date added: 2015-05-08 | Number of comments: 0 | Viewed: 173
>
Search / ПОИСК
Login / Logout
Latest 50 Entries
Stats
Poll
Menu
Chat
Most Popular 20 Entries
All Time Top 100