Junoon Torrents - Download Movies - junoon.ucoz.ru



Jai Ho 2014 Hindi BluRay 1080p HEVC x265 DTS...Team Telly



Storyline:

An ex-army officer initiates a unique idea of propagating social responsibility among ordinary people and in doing so, crosses paths with a powerful political family..

Genres: Action, Drama
Country: India
Language: Hindi
Release Date:24 January 2014 (USA)



Media Information:

Complete name :Jai Ho 2014 Hindi BluRay 1080p HEVC x265 DTS...Team Telly

Format : Matroska
Format version : Version 4 / Version 2
File size : 4.91 GiB
Duration : 2h 20mn
Overall bit rate : 4 991 Kbps
Movie name : RSY-HEVC ENCODER
Encoded date : UTC 2015-04-17 00:17:40

Video
ID : 1
Format : HEVC
Format/Info : High Efficiency Video Coding
Codec ID : V_MPEGH/ISO/HEVC
Duration : 2h 20mn
Bit rate : 3 383 Kbps
Width : 1 920 pixels
Height : 816 pixels
Display aspect ratio : 2.35:1
Frame rate mode : Constant
Frame rate : 24.000 fps
Bits/(Pixel*Frame) : 0.090
Stream size : 3.33 GiB (68%)
Title : RSY-HEVC ENCODER
Language : English
Default : Yes
Forced : No

Audio
ID : 2
Format : DTS
Format/Info : Digital Theater Systems
Mode : 16
Format settings, Endianness : Big
Codec ID : A_DTS
Duration : 2h 20mn
Bit rate mode : Constant
Bit rate : 1 509 Kbps
Channel(s) : 6 channels
Channel positions : Front: L C R, Side: L R, LFE
Sampling rate : 48.0 KHz
Bit depth : 24 bits
Compression mode : Lossy
Stream size : 1.49 GiB (30%)
Title : RSY-HEVC ENCODER
Default : Yes
Forced : No




Screenshot:

























Note : Please try to seed as much as you can since "sharing brings joy" !

Respect to all Staffs and all P2P Relesers



/_ld/18/47749378.jpg
Date added: 2015-04-24 | Number of comments: 0 | Viewed: 123
>
Search / ПОИСК
Login / Logout
Latest 50 Entries
Stats
Poll
Menu
Chat
Most Popular 20 Entries
All Time Top 100