Junoon Torrents - Download Movies - junoon.ucoz.ru



Wanted 2009 Hindi BluRay 1080p HEVC x265 DTS...Team Telly



Storyline:

Radhe is a ruthless gangster who will kill anyone for money. He is attracted towards Jhanvi, a middle class girl, who does not approve of his work and wants him to change...

Genres:Action, Comedy, Crime
Country: India
Language: Hindi
Release Date:18 September 2009 (India)



Media Information:

Complete name :Wanted 2009 Hindi BluRay 1080p HEVC x265 DTS...Team Telly

Format : Matroska
Format version : Version 4 / Version 2
File size : 5.49 GiB
Duration : 2h 33mn
Overall bit rate : 5 126 Kbps
Movie name : RSY-HEVC ENCODER

Video
ID : 1
Format : HEVC
Format/Info : High Efficiency Video Coding
Codec ID : V_MPEGH/ISO/HEVC
Duration : 2h 33mn
Bit rate : 3 515 Kbps
Width : 1 920 pixels
Height : 816 pixels
Display aspect ratio : 2.35:1
Frame rate mode : Constant
Frame rate : 24.000 fps
Bits/(Pixel*Frame) : 0.093
Stream size : 3.77 GiB (69%)
Title : RSY-HEVC ENCODER
Language : English
Default : Yes
Forced : No

Audio
ID : 2
Format : DTS
Format/Info : Digital Theater Systems
Mode : 16
Format settings, Endianness : Big
Codec ID : A_DTS
Duration : 2h 33mn
Bit rate mode : Constant
Bit rate : 1 509 Kbps
Channel(s) : 6 channels
Channel positions : Front: L C R, Side: L R, LFE
Sampling rate : 48.0 KHz
Bit depth : 24 bits
Compression mode : Lossy
Stream size : 1.62 GiB (29%)
Title : RSY-HEVC ENCODER
Default : Yes
Forced : No




Screenshot:























Note : Please try to seed as much as you can since "sharing brings joy" !

Respect to all Staffs and all P2P Relesers

 

 




>>>>>Скачать Download<<<<<<





­ ­ ­ ­ ­ ­ ­ ­ ­ ­ ­ ­

 
 

 

 

/_ld/18/12230227.jpg
Date added: 2015-05-07 | Number of comments: 0 | Viewed: 156
>
Search / ПОИСК
Login / Logout
Latest 50 Entries
Stats
Poll
Menu
Chat
Most Popular 20 Entries
All Time Top 100